Основное меню


Популярные новости
    Облако тегов
    {tags1}
    Наш опрос

    Как вам наш сайт?

    Лучший
    Отлично
    Хорошо
    Нормально
    Плохо

    Рефереры
    {referer1}
    Рекламный блок
    {sape_links}
    Личный кабинет


    Top репортеров
    Архив
    Сентябрь 2015 (1083)
    Июль 2015 (361)
    Июнь 2015 (3349)
    Май 2015 (2533)
    Апрель 2015 (2989)
    Декабрь 2014 (14131)
    Рекомендуем


    Объявления

    Song Of The South DVDRip AC3 x264 - VAiN

    31-12-2013, 23:17 quangha
    Фильмы
    Song Of The South DVDRip AC3 x264 - VAiN
    Song Of The South DVDRip AC3 x264 - VAiN
    Song Of The South DVDRip AC3 x264 - VAiN | 1.01 GB
    File: Song.Of.The.South.DVDRip.x264.AC3 - VAiN.mkv
    Size: 1066979329 bytes (1017.55 MiB), duration: 01:34:27, avg.bitrate: 1506 kb/s
    Audio: ac3, 48000 Hz, stereo
    Video: h264, yuv420p, 640x464, 23.98 fps(r)
    iMDB iNFO
    Uncle Remus draws upon his tales of Brer Rabbit to help little Johnny deal his confusion over his parents' separation as well as his new life on the plantation. The tales: The Briar Patch, The Tar Baby and Brer Rabbit's Laughing place.
    Song Of The South DVDRip AC3 x264 - VAiN
    Title:Song of the South
    Year:1946
    Rating:7.2
    Genre:Animation / Family / Music
    Director:Wilfred Jackson / Harve Foster
    Cast:Ruth Warrick / Bobby Driscoll / James Baskett / Luana Patten / Lucile Watson / Hattie McDaniel / Erik Rolf / Glenn Leedy / Mary Field / Anita Brown / Georgie Nokes / Gene Holland / Nick Stewart / Johnny Lee
    Song Of The South DVDRip AC3 x264 - VAiN
    VAiN . P R E S E N T S . . .
    Song.Of.The.South.DVDRip.x264.AC3 - VAiN
    info
    iMDB........: http://www.imdb.com/title/tt0038969/
    Description........: The kindhearted storyteller Uncle Remus tells a young boy stories about trickster Br'er Rabbit, who outwits Br'er Fox and slow-witted Br'er Bear.
    T E C H N i C A L . i N F O . . .
    Format : Matroska
    Format version : Version 2
    File size : 1 018 MiB
    Duration : 1h 34mn
    Overall bit rate : 1 506 Kbps
    Encoded date : UTC 2013-11-26 16:24:48
    Writing application : mkvmerge v5.8.0 ('No Sleep / Pillow') built on Sep 2 2012 15:37:04
    Writing library : libebml v1.2.3 + libmatroska v1.3.0
    Video
    ID : 1
    Format : AVC
    Format/Info : Advanced Video Codec
    Format profile : [emailprotected]/* */
    Format settings, CABAC : Yes
    Format settings, ReFrames : 4 frames
    Muxing mode : Header stripping
    Codec ID : V_MPEG4/ISO/AVC
    Duration : 1h 34mn
    Bit rate : 1 249 Kbps
    Width : 640 pixels
    Height : 464 pixels
    Display aspect ratio : 1.379
    Frame rate mode : Constant
    Frame rate : 23.976 fps
    Color space : YUV
    Chroma subsampling : 4:2:0
    Bit depth : 8 bits
    Scan type : Progressive
    Bits/(Pixel*Frame) : 0.175
    Stream size : 824 MiB (81%)
    Writing library : x264 core 133 r2334 a3ac64b
    Audio
    ID : 2
    Format : AC-3
    Format/Info : Audio Coding 3
    Mode extension : CM (complete main)
    Format settings, Endianness : Big
    Muxing mode : Header stripping
    Codec ID : A_AC3
    Duration : 1h 34mn
    Bit rate mode : Constant
    Bit rate : 256 Kbps
    Channel(s) : 2 channels
    Channel positions : Front: L R
    Sampling rate : 48.0 KHz
    Bit depth : 16 bits
    Compression mode : Lossy
    Stream size : 173 MiB (17%)
    Default : Yes
    Forced : No
    notes
    SOURCE......: Bluray
    SAMPLE......: Yes
    ADDED NOTE..:
    screens
    Song Of The South DVDRip AC3 x264 - VAiN
    Buy a premium rapidgator.net to download file with fast speed
    Written answers for you or me
    thanks
    Song Of The South DVDRip AC3 x264 - VAiN

    http://rapidgator.net/file/33f0cae7a12ce6be78d7fecf30629423/kmiom.Song.Of.The.South.DVDRip.AC3.x264..VAiN.part1.rar.html
    http://rapidgator.net/file/26321ce708861869a9e61b735eab3de8/kmiom.Song.Of.The.South.DVDRip.AC3.x264..VAiN.part2.rar.html

    Теги:  Applications, Movies, Musics

     (голосов: 0)