Основное меню


Популярные новости
    Облако тегов
    {tags1}
    Наш опрос

    Как вам наш сайт?

    Лучший
    Отлично
    Хорошо
    Нормально
    Плохо

    Рефереры
    {referer1}
    Рекламный блок
    {sape_links}
    Личный кабинет


    Top репортеров
    Архив
    Сентябрь 2015 (1083)
    Июль 2015 (361)
    Июнь 2015 (3349)
    Май 2015 (2533)
    Апрель 2015 (2989)
    Декабрь 2014 (14131)
    Рекомендуем


    Объявления

    Comprehensive Manual Therapy for the Lower Extremity on DVD

    17-05-2019, 12:29 Bo0mB0om
    Книги журналы
    Comprehensive Manual Therapy for the Lower Extremity on DVD

    Comprehensive Manual Therapy for the Lower Extremity on DVD
    DVD5 | English | VOB | 720 x 480 | MPEG2 ~4043 kbps | 29.970 fps
    AC-3 | 256 Kbps | 48.0 KHz | 2 channels | 02:09:51 | 3.94 GB
    Genre: eLearning Video / Medicine, Massage, Rehabilitation
    Watch world-renowned experts apply the latest techniques to effectively treat injuries and ailments to the cervical spine. Comprehensive Manual Therapy for the Cervical and Thoracic Spine DVD establishes a foundation for learning by detailing the anatomy, physiology, and pathology of this specific region.


    The user-friendly DVD format, utilizing audio narration and professional insight, is the ideal way to successfully understand and immediately apply these techniques in a clinical environment.

    Following this discussion, demonstrations of each technique are presented along with practical tips for treating the cervical spine. These demonstrations help rehabilitation professionals build confidence in applying these techniques to their patients. More importantly, they enhance the ability to evaluate and select appropriate treatments for a variety of disorders.

    also You can find my other helpful
    https://rapu.world/search/?category_slug=&query=Rehabilitation&language=&age=&author=ParRus&search=1
    Rehabilitation-posts

    General
    Complete name : VTS_01_1.VOB
    Format : MPEG-PS
    File size : 1 024 MiB
    Duration : 32mn 38s
    Overall bit rate mode : Variable
    Overall bit rate : 4 386 Kbps

    Video
    ID : 224 (0xE0)
    Format : MPEG Video
    Format version : Version 2
    Format profile : [email protected]
    Format settings, BVOP : Yes
    Format settings, Matrix : Custom
    Format settings, GOP : M=3, N=15
    Duration : 32mn 38s
    Bit rate mode : Variable
    Bit rate : 4 043 Kbps
    Maximum bit rate : 9 558 Kbps
    Width : 720 pixels
    Height : 480 pixels
    Display aspect ratio : 4:3
    Frame rate : 29.970 fps
    Standard : NTSC
    Color space : YUV
    Chroma subsampling : 4:2:0
    Bit depth : 8 bits
    Scan type : Interlaced
    Scan order : Top Field First
    Compression mode : Lossy
    Bits/(Pixel*Frame) : 0.390
    Stream size : 944 MiB (92%)
    Color primaries : SMPTE 170M
    Transfer characteristics : SMPTE 170M
    Matrix coefficients : SMPTE 170M

    Audio
    ID : 189 (0xBD)-128 (0x80)
    Format : AC-3
    Format/Info : Audio Coding 3
    Mode extension : CM (complete main)
    Muxing mode : DVD-Video
    Duration : 32mn 38s
    Bit rate mode : Constant
    Bit rate : 256 Kbps
    Channel(s) : 2 channels
    Channel positions : Front: L R
    Sampling rate : 48.0 KHz
    Bit depth : 16 bits
    Compression mode : Lossy
    Delay relative to video : -66ms
    Stream size : 59.8 MiB (6%)

    Menu

    Screenshots

    Comprehensive Manual Therapy for the Lower Extremity on DVD

    Comprehensive Manual Therapy for the Lower Extremity on DVD

    Comprehensive Manual Therapy for the Lower Extremity on DVD
    DOWNLOAD
    (Buy premium account for maximum speed and resuming ability)






     (голосов: 0)